开启左侧

[反黑].OCTB.2017.WEB-DL.1080p.x264.AAC-HQC[17.03G]

[复制链接]
117 7
[反黑].OCTB.2017.WEB-DL.1080p.x264.AAC-HQC  17.03G



◎译  名 OCTB
◎片  名 反黑
◎年  代 2017
◎产  地 中国大陆
◎类  别 剧情/犯罪
◎语  言 粤语/汉语普通话
◎上映日期 2017-09-22(中国大陆)
◎豆瓣评分 6.9/10 from 3,023 users
◎豆瓣链接 https://movie.douban.com/subject/26961209/
◎集  数 30
◎片  长 45分钟
◎导  演 宋本中 Boon-Chung Sung
◎主  演 陈小春 Jordan Chan
      陈国坤 Kwok-Kwan Chan
      李灿森 Sam Lee
      宋本中 Boon-Chung Sung
      陈惠敏 Wai-Man Chan
      吴志雄 Chi Hung Ng
      吴孟达 Man Tat Ng
      王合喜 Ken Wong
      彭敬慈 Samuel Pang
      陈嘉桓 Rose Chan
      柯有伦 Alan Ko
      张建声 Justin Cheung
      吴岱融 Hugo Ng Doi-Yung
      周群达 Duncan Lai
      陈保元 Ricky Chan Po-Yuen
      何华超 Tony Ho
      姜文杰 Chiang Man Kit
      李天翔 Eric Li Tin Cheung
      李忠希 Jones Lee
      黄伊汶 Emme Wong
      郑希怡 Hei-Yi Cheng
      陈雅婷 Yating Chen
      汤怡 Kathy Tong
      郭奕芯 Ashina Kwok
      陈欣健 Philip Chan
      黄柏文 Parkman Wong
      吴家丽 Carrie Ng
      吴毅将 Ben Ng
      卢惠光 Ken Lo
      廖骏雄 Chun Hung Liao
      黄树棠 Shu Tong Wong

◎简  介

  卧底探员陈凤翔(陈小春 饰)在破获一宗社团大案之后,转任文职八年被反黑组重新招回。由于江湖上最令人头痛的黑社会头目正是陈凤翔当年的小弟张志强,陈重出“江湖”,加入以张少钧(陈国坤 饰)为首的反黑B1-1组与新晋恶棍展开周旋,其中不乏昔日好友与仇家,令陈一度进退两难,好在陈与队友在合作期间培养出互信默契。正值香港回归还有三年,黑帮打算乘势大干一票。陈在调查一宗龙头棍的失踪案件时,却发现了涉及香港黑社会百年历史的惊天大阴谋。

  1. General

  2. Format                         : Matroska

  3. Format version                 : Version 4 / Version 2

  4. File size                      : 537 MiB

  5. Duration                       : 44 min 14 s

  6. Overall bit rate               : 1 697 kb/s

  7. Encoded date                   : UTC 2017-09-29 13:31:23

  8. Writing application            : mkvmerge v8.3.0 ('Over the Horizon') 64bit

  9. Writing library                : libebml v1.3.1 + libmatroska v1.4.2



  10. Video

  11. ID                             : 1

  12. Format                         : AVC

  13. Format/Info                    : Advanced Video Codec

  14. Format profile                 : High@L4

  15. Format settings, CABAC         : Yes

  16. Format settings, RefFrames     : 4 frames

  17. Codec ID                       : V_MPEG4/ISO/AVC

  18. Duration                       : 44 min 14 s

  19. Bit rate                       : 1 438 kb/s

  20. Width                          : 1 920 pixels

  21. Height                         : 1 080 pixels

  22. Display aspect ratio           : 16:9

  23. Frame rate mode                : Constant

  24. Frame rate                     : 25.000 FPS

  25. Color space                    : YUV

  26. Chroma subsampling             : 4:2:0

  27. Bit depth                      : 8 bits

  28. Scan type                      : Progressive

  29. Bits/(Pixel*Frame)             : 0.028

  30. Stream size                    : 455 MiB (85%)

  31. Default                        : Yes

  32. Forced                         : No

  33. Color range                    : Limited

  34. Color primaries                : BT.709

  35. Transfer characteristics       : BT.709

  36. Matrix coefficients            : BT.709



  37. Audio #1

  38. ID                             : 2

  39. Format                         : AAC

  40. Format/Info                    : Advanced Audio Codec

  41. Format profile                 : LC

  42. Codec ID                       : A_AAC

  43. Duration                       : 44 min 14 s

  44. Bit rate                       : 128 kb/s

  45. Channel(s)                     : 2 channels

  46. Channel positions              : Front: L R

  47. Sampling rate                  : 44.1 kHz

  48. Frame rate                     : 43.066 FPS (1024 SPF)

  49. Compression mode               : Lossy

  50. Delay relative to video        : -46 ms

  51. Stream size                    : 40.5 MiB (8%)

  52. Title                          : 粤语

  53. Default                        : Yes

  54. Forced                         : No



  55. Audio #2

  56. ID                             : 3

  57. Format                         : AAC

  58. Format/Info                    : Advanced Audio Codec

  59. Format profile                 : LC

  60. Codec ID                       : A_AAC

  61. Duration                       : 44 min 14 s

  62. Bit rate                       : 128 kb/s

  63. Channel(s)                     : 2 channels

  64. Channel positions              : Front: L R

  65. Sampling rate                  : 44.1 kHz

  66. Frame rate                     : 43.066 FPS (1024 SPF)

  67. Compression mode               : Lossy

  68. Delay relative to video        : -46 ms

  69. Stream size                    : 40.5 MiB (8%)

  70. Title                          : 国语

  71. Default                        : No

  72. Forced                         : No
复制代码










BT种子
游客,如果您要查看本帖隐藏内容请回复

本帖子中包含更多资源

您需要 登录 才可以下载或查看,没有帐号?立即注册  

x

举报

回复

7 个评论

您需要登录后才可以回帖 登录 | 立即注册  

本版积分规则

高清剧集推荐

更多

高清MV/综艺

更多

客服中心

400-800-8888 周一至周日 8:30-20:30 仅收市话费

关注我们

  • 手机客户端
  • 关注官方微信
关闭

站长推荐上一条 /1 下一条

关于我们
关于我们
友情链接
联系我们
帮助中心
网友中心
购买须知
支付方式
服务支持
资源下载
售后服务
定制流程
关注我们
官方微博
官方空间
官方微信
快速回复 返回顶部 返回列表