开启左侧

[外科风云].Surgeons.2017.WEB-DL.1080p.x264.AAC-HQC[68.02G]

[复制链接]
170 3
[外科风云].Surgeons.2017.WEB-DL.1080p.x264.AAC-HQC  68.02G



◎译  名 外科医生
◎片  名 外科风云
◎年  代 2017
◎产  地 中国大陆
◎类  别 剧情/爱情
◎语  言 汉语普通话
◎上映日期 2017-04-17(中国大陆)
◎IMDb评分  7.7/10 from 21 users
◎IMDb链接  http://www.imdb.com/title/tt6810962/
◎豆瓣评分 7.5/10 from 41,144 users
◎豆瓣链接 https://movie.douban.com/subject/26683725/
◎集  数 44
◎片  长 43分钟
◎导  演 李雪 Xue Li
◎主  演 靳东 Dong Jin
      白百何 Baihe Bai
      李佳航 Jiahang Li
      马少骅 Shaohua Ma
      蓝盈莹 Yingying Lan
      何杜娟 Dujuan He
      杨新鸣 Xinming Yang
      王森 Sen Wang
      金泽灏 Zehao Jin
      刘奕君 Yijun Liu
      金士杰 King Shih-Chieh
      高露 Lu Gao
      耿乐 Le Geng
      冯晖 Hui Feng
      赵丽娟 Lijuan Zhao
      常方源 Fangyuan Chang
      武笑羽 Xiaoyu Wu
      陈大伟 Dawei Chen
      王永泉 Yongquan Wang
      吴楠 Nan Wu
      胡歌 Ge Hu
      丁勇岱 Yongdai Ding
      钟紫怡 Ziyi Zhong
      张墨锡 Moxi Zhang
      高鑫 Xin Gao
      王一楠 Yinan Wang
      高海鹏 Haipeng Gao
      柯蓝 Lan Ke
      薛淑杰 Shujie Xue
      张建栋 Jiandong Zhang
      王庆祥 Qingxiang Wang
      任程伟 Chengwei Ren
      毕彦君 Yanjun Bi
      曹翠芬 Cuifen Cao
      董勇 Yong Dong
      刘琳 Lin Liu
      刘向京 Xiang-Jing Liu
      李光复 Guangfu Li
      任帅 Shuai Ren
      宁文彤 Wentong Ning
      王乐君 Lejun Wang
      张陆 Lu Zhang
      王宏 Hong Wang
      康群智 Qunzhi Kang
      李洪涛 Hongtao Li
      戴云霞 Yunxia Dai
      岳旸 Yang Yue
      墨阳 Yang Mo
      李勤勤 Qinqin Li
      嵇波 Bo Ji
      贾梓洺 Ziming Jia
      郑惠馨 Huixin Zheng
      林家川 Jiachuan Lin
      张永健 Yongjian Zhang
      周乐 Le Zhou
      冯波 Bo Feng
      白玉 Yu Bai
      梁诗冉 Shiran Liang
      孙梦佳 Mengjia Sun
      邵伟桐 Weitong Shao
      朱梦瑶 Mengyao Zhu
      王春妹 Chunmei Wang
      许路阳 Luyang Xu
      李小燕 Xiaoyan Li
      李朵 Duo Li
      张晔子 Yezi Zhang
      司源 Yuan Si
      许愿
      张婉儿 Waner Zhang
      江佳奇 Jiaqi Jiang
      谭希和 Xihe Tan
      穆丽燕 Liyan Mu
      焦体怡 Tiyi Jiao
      莫诗旎 Shini Mo
      罗昱焜 Yukun Luo
      赵千紫 Qianzi Zhao
      白马竞 Majing Bai
      卫小雨 Xiaoyu Wei
      李大光 Daguang Li
      苗克 Ke Miao
      杨阳 Yang Yang
      康家铭 Jiaming Kang

◎简  介

  新城仁和医院,护士张淑梅被质疑用错药导致病人死亡被迫离开岗位,4岁女儿被人贩拐,张淑梅精神恍惚两年后被车祸夺去生命。美籍华裔外科专家庄恕为追查30年前母亲张淑梅的事故真相找寻走失的妹妹来到新城仁和医院。当年死者的女儿陆晨曦士师从傅博文成长为胸外科主治医生,却因反感利益为先屡次得罪胸外科主任扬帆被调至急诊。是庄恕屡次把技能过硬的陆晨曦重新带回胸外手术台。朝夕相处中,庄恕的医术让陆晨曦惊叹,对患者的周到考虑也让陆晨曦反思,二人渐生情愫,最终,庄恕找回了妹妹,也在陆晨曦的协助下还原了当年母亲当年事故的真相。

  1. General

  2. Format                         : MPEG-4

  3. Format profile                 : Base Media

  4. Codec ID                       : isom (isom/iso2/avc1/mp41)

  5. File size                      : 1.54 GiB

  6. Duration                       : 42 min 55 s

  7. Overall bit rate mode          : Variable

  8. Overall bit rate               : 5 140 kb/s

  9. Writing application            : Lavf57.25.100



  10. Video

  11. ID                             : 1

  12. Format                         : AVC

  13. Format/Info                    : Advanced Video Codec

  14. Format profile                 : High@L4

  15. Format settings, CABAC         : Yes

  16. Format settings, RefFrames     : 4 frames

  17. Codec ID                       : avc1

  18. Codec ID/Info                  : Advanced Video Coding

  19. Duration                       : 42 min 55 s

  20. Bit rate                       : 5 005 kb/s

  21. Width                          : 1 920 pixels

  22. Height                         : 1 072 pixels

  23. Display aspect ratio           : 16:9

  24. Frame rate mode                : Constant

  25. Frame rate                     : 25.000 FPS

  26. Color space                    : YUV

  27. Chroma subsampling             : 4:2:0

  28. Bit depth                      : 8 bits

  29. Scan type                      : Progressive

  30. Bits/(Pixel*Frame)             : 0.097

  31. Stream size                    : 1.50 GiB (97%)

  32. Writing library                : Provided by www.letv.com  :: H.264/MPEG-4 AVC codec -V 1.6.09-20151125



  33. Audio

  34. ID                             : 2

  35. Format                         : AAC

  36. Format/Info                    : Advanced Audio Codec

  37. Format profile                 : LC

  38. Codec ID                       : 40

  39. Duration                       : 42 min 55 s

  40. Bit rate mode                  : Variable

  41. Bit rate                       : 128 kb/s

  42. Maximum bit rate               : 149 kb/s

  43. Channel(s)                     : 2 channels

  44. Channel positions              : Front: L R

  45. Sampling rate                  : 44.1 kHz

  46. Frame rate                     : 43.066 FPS (1024 SPF)

  47. Compression mode               : Lossy

  48. Stream size                    : 39.3 MiB (2%)

  49. Default                        : Yes

  50. Alternate group                : 1
复制代码










BT种子
游客,如果您要查看本帖隐藏内容请回复

本帖子中包含更多资源

您需要 登录 才可以下载或查看,没有帐号?立即注册  

x

举报

回复

3 个评论

您需要登录后才可以回帖 登录 | 立即注册  

本版积分规则

高清剧集推荐

更多

高清MV/综艺

更多

客服中心

400-800-8888 周一至周日 8:30-20:30 仅收市话费

关注我们

  • 手机客户端
  • 关注官方微信
关闭

站长推荐上一条 /1 下一条

关于我们
关于我们
友情链接
联系我们
帮助中心
网友中心
购买须知
支付方式
服务支持
资源下载
售后服务
定制流程
关注我们
官方微博
官方空间
官方微信
快速回复 返回顶部 返回列表