开启左侧

2018环球跨年冰雪盛典.20171231.1080i.BTV1.HDTV.H.264.DD5.1-FLTTH.ts 20.7G

[复制链接]
173 6

  1. General
  2. ID                                       : 1 (0x1)
  3. Complete name                            : 2018环球跨年冰雪盛典.20171231.1080i.BTV1.HDTV.H.264.DD5.1-FLTTH.ts
  4. Format                                   : MPEG-TS
  5. File size                                : 20.7 GiB
  6. Duration                                 : 4 h 56 min
  7. Overall bit rate mode                    : Variable
  8. Overall bit rate                         : 9 990 kb/s

  9. Video
  10. ID                                       : 256 (0x100)
  11. Menu ID                                  : 1 (0x1)
  12. Format                                   : AVC
  13. Format/Info                              : Advanced Video Codec
  14. Format profile                           : High@L4
  15. Format settings                          : CABAC / 4 Ref Frames
  16. Format settings, CABAC                   : Yes
  17. Format settings, RefFrames               : 4 frames
  18. Format settings, GOP                     : M=3, N=24
  19. Codec ID                                 : 27
  20. Duration                                 : 4 h 56 min
  21. Bit rate                                 : 9 044 kb/s
  22. Width                                    : 1 920 pixels
  23. Height                                   : 1 080 pixels
  24. Display aspect ratio                     : 16:9
  25. Frame rate                               : 25.000 FPS
  26. Color space                              : YUV
  27. Chroma subsampling                       : 4:2:0
  28. Bit depth                                : 8 bits
  29. Scan type                                : Interlaced
  30. Scan type, store method                  : Separated fields
  31. Scan order                               : Top Field First
  32. Bits/(Pixel*Frame)                       : 0.174
  33. Stream size                              : 18.7 GiB (91%)
  34. Color range                              : Limited
  35. Color primaries                          : BT.709
  36. Transfer characteristics                 : BT.709
  37. Matrix coefficients                      : BT.709

  38. Audio
  39. ID                                       : 257 (0x101)
  40. Menu ID                                  : 1 (0x1)
  41. Format                                   : AC-3
  42. Format/Info                              : Audio Coding 3
  43. Codec ID                                 : 129
  44. Duration                                 : 4 h 56 min
  45. Bit rate mode                            : Constant
  46. Bit rate                                 : 448 kb/s
  47. Channel(s)                               : 6 channels
  48. Channel positions                        : Front: L C R, Side: L R, LFE
  49. Sampling rate                            : 48.0 kHz
  50. Frame rate                               : 31.250 FPS (1536 SPF)
  51. Bit depth                                : 16 bits
  52. Compression mode                         : Lossy
  53. Delay relative to video                  : -696 ms
  54. Stream size                              : 949 MiB (4%)
  55. Language                                 : English
  56. Service kind                             : Complete Main

  57. Menu
  58. ID                                       : 4096 (0x1000)
  59. Menu ID                                  : 1 (0x1)
  60. Duration                                 : 4 h 56 min
  61. List                                     : 256 (0x100) (AVC) / 257 (0x101) (AC-3, English)
  62. Language                                 :  / English
  63. Service name                             : BTV
  64. Service provider                         : BGCTV
  65. Service type                             : user defined

复制代码
简介:
    2018环球跨年冰雪盛典由北京电视台、河北广播电视台、黑龙江广播电视台联合举办,雷克萨斯冠名播出的2018 环球跨年冰雪盛典正在如火如荼地筹备之中。此次环球跨年冰雪盛典以“天涯共此时,冰雪加速度”为主题,突破了传统的舞台模式,将在北京水立方、河北崇礼太舞滑雪小镇以及哈尔滨冰原世纪欢乐谷三地设置会场,邀请众多国内外大咖以及冬奥明星选手“跨界”表演,相信此次盛典将会用燃爆全场的奥运精神和独一无二的冰雪品质为观众奉上一场精彩绝伦的跨年视觉大秀。




下载地址:



本帖子中包含更多资源

您需要 登录 才可以下载或查看,没有帐号?立即注册  

x

举报

回复

6 个评论

您需要登录后才可以回帖 登录 | 立即注册  

本版积分规则

高清剧集推荐

更多

高清MV/综艺

更多

客服中心

400-800-8888 周一至周日 8:30-20:30 仅收市话费

关注我们

  • 手机客户端
  • 关注官方微信
关闭

站长推荐上一条 /1 下一条

关于我们
关于我们
友情链接
联系我们
帮助中心
网友中心
购买须知
支付方式
服务支持
资源下载
售后服务
定制流程
关注我们
官方微博
官方空间
官方微信
快速回复 返回顶部 返回列表