开启左侧

中央电视台综艺频道元旦特别节目 山水中国美.20180101.1080i.CCTV3.HDTV.H.264.DD5.1-FLTTH.ts 6.32G

[复制链接]
216 10
本帖最后由 福利发放鸡 于 2018-1-3 15:46 编辑

  1. General
  2. ID                                       : 1 (0x1)
  3. Complete name                            : 山水中国美.20180101.1080i.CCTV3.HDTV.H.264.DD5.1-FLTTH.ts
  4. Format                                   : MPEG-TS
  5. File size                                : 6.32 GiB
  6. Duration                                 : 1 h 40 min
  7. Overall bit rate mode                    : Variable
  8. Overall bit rate                         : 8 952 kb/s

  9. Video
  10. ID                                       : 256 (0x100)
  11. Menu ID                                  : 1 (0x1)
  12. Format                                   : AVC
  13. Format/Info                              : Advanced Video Codec
  14. Format profile                           : High@L4
  15. Format settings                          : CABAC / 3 Ref Frames
  16. Format settings, CABAC                   : Yes
  17. Format settings, RefFrames               : 3 frames
  18. Format settings, GOP                     : M=3, N=15
  19. Codec ID                                 : 27
  20. Duration                                 : 1 h 41 min
  21. Bit rate mode                            : Constant
  22. Bit rate                                 : 7 800 kb/s
  23. Width                                    : 1 920 pixels
  24. Height                                   : 1 080 pixels
  25. Display aspect ratio                     : 16:9
  26. Frame rate                               : 25.000 FPS
  27. Color space                              : YUV
  28. Chroma subsampling                       : 4:2:0
  29. Bit depth                                : 8 bits
  30. Scan type                                : Interlaced
  31. Scan type, store method                  : Separated fields
  32. Scan order                               : Top Field First
  33. Bits/(Pixel*Frame)                       : 0.150
  34. Stream size                              : 5.68 GiB (90%)
  35. Color range                              : Limited
  36. Color primaries                          : BT.709
  37. Transfer characteristics                 : BT.709
  38. Matrix coefficients                      : BT.709

  39. Audio
  40. ID                                       : 257 (0x101)
  41. Menu ID                                  : 1 (0x1)
  42. Format                                   : AC-3
  43. Format/Info                              : Audio Coding 3
  44. Codec ID                                 : 129
  45. Duration                                 : 1 h 41 min
  46. Bit rate mode                            : Constant
  47. Bit rate                                 : 448 kb/s
  48. Channel(s)                               : 6 channels
  49. Channel positions                        : Front: L C R, Side: L R, LFE
  50. Sampling rate                            : 48.0 kHz
  51. Frame rate                               : 31.250 FPS (1536 SPF)
  52. Bit depth                                : 16 bits
  53. Compression mode                         : Lossy
  54. Delay relative to video                  : -407 ms
  55. Stream size                              : 324 MiB (5%)
  56. Language                                 : English
  57. Service kind                             : Complete Main

  58. Menu
  59. ID                                       : 4096 (0x1000)
  60. Menu ID                                  : 1 (0x1)
  61. Duration                                 : 1 h 40 min
  62. List                                     : 256 (0x100) (AVC) / 257 (0x101) (AC-3, English)
  63. Language                                 :  / English
  64. Service name                             : CCTV3
  65. Service provider                         : BGCTV
  66. Service type                             : user defined

复制代码
简介:
    由中央电视台综艺频道制作推出的元旦特别节目《山水中国美》于1月1日 19:30与观众见面。本次元旦特别节目以“山、水、中国美”为主题,从中华优秀文化中汲取养分,在祖国壮丽河山、都市魅力景观中寻找灵感,从而展现一幅古典与现代交融、时代与经典并重的中华民族美丽的历史人文风情画卷。
    本次元旦特别节目已于12月初完成录制,录制地点则选在云南省弥勒市锦屏后海公园,以山水实景为幕,以天地为舞台,以中华文化为“染料”,并由央视名嘴李思思、张蕾、马跃、宫岩联袂担纲主持,邀请歌唱家阎维文;歌手杨宗纬、尚雯婕、霍尊、萨顶顶;演员潘粤明等参与演出,为观众呈现一幅美轮美奂的视听盛宴。
    绿水青山就是金山银山,山水之间盼美好愿景。根据节目主创的描述,整场特别节目的构架将分为春、夏、秋、冬四个篇章,分别以“山水”、“美食”、“文化”、“爱情”为主题进行设计表达。通过将观众耳熟能详、喜闻乐见的风景、城市、话题、情感等内容呈现出来,表达我国地大物博的自然风光和博大精深的历史人文,展现文化自信,增加国民自信。





下载地址:





本帖子中包含更多资源

您需要 登录 才可以下载或查看,没有帐号?立即注册  

x

举报

回复

10 个评论

jintaizhexiaozi  1080p  发表于 2018-1-4 07:02:21  | 显示全部楼层
哎呀  算算我都好几年没看春晚了  似乎现在有电脑和手机  春晚什么的几乎都是瞟一眼就接着忙自己的事情   真是惭愧   这个确实值得收藏    感谢分享.
您需要登录后才可以回帖 登录 | 立即注册  

本版积分规则

高清剧集推荐

更多

高清MV/综艺

更多

客服中心

400-800-8888 周一至周日 8:30-20:30 仅收市话费

关注我们

  • 手机客户端
  • 关注官方微信
关闭

站长推荐上一条 /1 下一条

关于我们
关于我们
友情链接
联系我们
帮助中心
网友中心
购买须知
支付方式
服务支持
资源下载
售后服务
定制流程
关注我们
官方微博
官方空间
官方微信
快速回复 返回顶部 返回列表