开启左侧

2018年新年戏曲晚会.20180101.1080i.CCTV1.HDTV.H.264-FLTTH.ts 4.00G

[复制链接]
511 15

  1. General
  2. ID                                       : 1 (0x1)
  3. Complete name                            : 2018年新年戏曲晚会.20180101.1080i.CCTV1.HDTV.H.264-FLTTH.ts
  4. Format                                   : MPEG-TS
  5. File size                                : 4.00 GiB
  6. Duration                                 : 1 h 11 min
  7. Overall bit rate mode                    : Variable
  8. Overall bit rate                         : 8 060 kb/s

  9. Video
  10. ID                                       : 256 (0x100)
  11. Menu ID                                  : 1 (0x1)
  12. Format                                   : AVC
  13. Format/Info                              : Advanced Video Codec
  14. Format profile                           : High@L4
  15. Format settings                          : CABAC / 2 Ref Frames
  16. Format settings, CABAC                   : Yes
  17. Format settings, RefFrames               : 2 frames
  18. Format settings, GOP                     : M=3, N=12
  19. Codec ID                                 : 27
  20. Duration                                 : 1 h 11 min
  21. Bit rate                                 : 7 532 kb/s
  22. Width                                    : 1 920 pixels
  23. Height                                   : 1 080 pixels
  24. Display aspect ratio                     : 16:9
  25. Frame rate                               : 25.000 FPS
  26. Color space                              : YUV
  27. Chroma subsampling                       : 4:2:0
  28. Bit depth                                : 8 bits
  29. Scan type                                : Interlaced
  30. Scan type, store method                  : Separated fields
  31. Scan order                               : Top Field First
  32. Bits/(Pixel*Frame)                       : 0.145
  33. Stream size                              : 3.74 GiB (93%)

  34. Audio
  35. ID                                       : 257 (0x101)
  36. Menu ID                                  : 1 (0x1)
  37. Format                                   : MPEG Audio
  38. Format version                           : Version 1
  39. Format profile                           : Layer 2
  40. Codec ID                                 : 3
  41. Duration                                 : 1 h 11 min
  42. Bit rate mode                            : Constant
  43. Bit rate                                 : 128 kb/s
  44. Channel(s)                               : 2 channels
  45. Sampling rate                            : 48.0 kHz
  46. Frame rate                               : 41.667 FPS (1152 SPF)
  47. Compression mode                         : Lossy
  48. Delay relative to video                  : -152 ms
  49. Stream size                              : 65.0 MiB (2%)

  50. Menu
  51. ID                                       : 4096 (0x1000)
  52. Menu ID                                  : 1 (0x1)
  53. Duration                                 : 1 h 11 min
  54. List                                     : 256 (0x100) (AVC) / 257 (0x101) (MPEG Audio)
  55. Service name                             : CCTV1
  56. Service provider                         : CCTV
  57. Service type                             : digital television

复制代码
简介:
  2018年新年戏曲晚会29日晚在国家大剧院举行。党和国家领导人习近平、李克强、张德江、俞正声、张高丽、栗战书、汪洋、王沪宁、赵乐际、韩正等,与首都近千名群众欢聚一堂,一起观看演出,喜迎新年的到来。
  夜色中的国家大剧院华灯璀璨,戏剧场内温暖如春、笑语盈盈。19时50分,习近平等党和国家领导人来到晚会现场,同前来观看演出的老艺术家们一一握手,全场响起热烈的掌声。
  戏歌传新韵,领航新征程。一曲荟萃了9个地方剧种的戏曲联唱《一个都不能少》拉开整场晚会序幕。新编节目《古戏迎新春》喜庆欢乐的基调,绽放出浓浓的春意。赣南采茶戏《永远的歌谣》、上党梆子《太行娘亲》的精彩片段表达了革命战争年代共产党员坚定信仰、敢于牺牲的无畏精神。《谷文昌》《李保国》《黄大年》3个剧目片段再现了英模人物的感人事迹。京剧《在路上》等作品反映了戏曲艺术在现实题材创作中所取得的阶段性成果。昆曲《昭君出塞》、锡剧《珍珠塔》、梨园戏《董生与李氏》、京剧《徐策跑城》等经典片段,以及少儿戏曲表演《盛世新蕾》,集中展示传统艺术历久弥新的艺术魅力和古老剧种薪火相传、人才辈出的时代景象。“双锤”“舞叉”“耍枪”“珠”“手绢”“水袖”等绝活技巧,一招一式凝聚了历代戏曲人的潜心、专心、信心、恒心,彰显了中国戏曲的风采。原创戏歌《领航新征程》激昂的旋律将晚会推向高潮,展现了全党全国各族人民在以习近平同志为核心的党中央带领下,不忘初心谱新篇、同心共筑中国梦的坚定信念和决心。艺术家们的精彩表演赢得全场阵阵喝彩和热烈掌声。
  今年的新年戏曲晚会着重呈现新创作品片段,加大现实题材比重,各剧种具有代表性的名家名角登台献艺,在晚会举办的第5年实现了31个省区市代表性剧种的全覆盖。
  在京中共中央政治局委员、中央书记处书记,党和国家有关领导同志,有关部门负责同志等观看了演出。

下载地址:



本帖子中包含更多资源

您需要 登录 才可以下载或查看,没有帐号?立即注册  

x

举报

回复

15 个评论

您需要登录后才可以回帖 登录 | 立即注册  

本版积分规则

VIP会员招募,免广告,免回复,免收费下载
搜索

高清剧集推荐

更多

高清MV/综艺

更多

客服中心

400-800-8888 周一至周日 8:30-20:30 仅收市话费

关注我们

  • 手机客户端
  • 关注官方微信
关闭

站长推荐上一条 /1 下一条

关于我们
关于我们
友情链接
联系我们
帮助中心
网友中心
购买须知
支付方式
服务支持
资源下载
售后服务
定制流程
关注我们
官方微博
官方空间
官方微信
快速回复 返回顶部 返回列表